#TITLE:God Knows;
#SUBTITLE:;
#ARTIST:Keiko;
#TITLETRANSLIT:God Knows;
#SUBTITLETRANSLIT:;
#ARTISTTRANSLIT:Keiko;
#CREDIT:Chu Nhat , 21-12-2008;
#BANNER:God Knows-bn.png;
#BACKGROUND:God Knows-bg.png;
#LYRICSPATH:;
#CDTITLE:pm4cd.png;
#MUSIC:God Knows.mp3;
#OFFSET:0.220;
#SAMPLESTART:53.880;
#SAMPLELENGTH:20.000;
#SELECTABLE:YES;
#BPMS:0.000=175.000;
#STOPS:;
#BGCHANGES:;
// cache tags:
#FIRSTBEAT:1.000;
#LASTBEAT:672.500;
#SONGFILENAME:Songs/Music V.I.P ^_^/God Knows - Keiko/God Knows.sm;
#HASMUSIC:1;
#HASBANNER:1;
#MUSICLENGTH:230.617;
// end cache tags

//---------------dance-single - ----------------
#NOTES:
     dance-single:
     :
     Hard:
     23:
     1.000,1.000,1.000,0.048,1.000,2318.000,621.000,11.000,0.000,73.000:
0000
0000
0000
0000
0011
0100
0001
1000
0010
0100
1000
0010
0100
1000
0100
0010
,
0001
1000
0100
0000
1010
0100
1000
0100
0010
0001
0100
1000
0100
0010
0001
0010
,
1000
0010
0001
0000
0110
1000
0001
0100
0001
1000
0100
1000
0100
0010
0001
0100
,
1000
0001
0010
0100
1000
0100
0010
0100
1000
0100
0010
0001
0010
0100
0010
0001
,
0010
0001
0100
0000
1011
0100
0010
0001
1000
0010
0100
0001
1000
0001
0100
0010
,
1000
0100
0010
0000
1100
0001
1000
0010
0100
1000
0100
0010
0001
0100
0010
0100
,
1000
0100
0010
0000
1001
0000
1010
0000
1001
0000
1010
0000
1001
0000
1010
0000
,
1001
0000
1010
0000
1001
0100
0010
0001
0010
0100
0010
0100
1000
0100
0010
0001
,
0010
0100
1000
0100
1011
0100
1000
0010
0001
0100
0010
1000
0001
0100
0010
0001
,
0010
0100
0010
0000
0101
1000
0100
0010
0001
0010
0001
0010
0100
1000
0100
0010
,
0100
0010
0001
0000
0011
0100
1010
0100
0011
0100
1010
0001
1100
0010
0001
0010
,
0100
0001
0010
0100
1001
0100
0010
0100
1000
0010
0100
1000
0100
0010
0001
0010
,
0001
0010
0100
0000
1110
0001
1000
0010
0100
0001
0010
0100
0010
1000
0010
0100
,
1000
0100
0010
0000
0111
1000
0001
0100
0001
1000
0010
0100
1000
0100
1000
0010
,
0100
0010
0001
0000
1101
0000
0110
0000
0101
0000
0110
0000
0101
0000
0110
0000
,
0101
0110
1101
1000
0100
1000
0100
1000
,
0100
1000
0101
0010
1100
0010
0101
0010
,
1100
0010
0101
0010
1100
0010
0101
0010
,
1100
0010
0011
0100
1010
0100
0011
0100
,
1010
0100
0011
0100
1010
0100
0011
0100
,
1010
0100
0110
1000
0101
1000
0110
1000
,
0101
1000
0110
1000
0101
1000
0110
1000
,
0101
1000
1001
0100
0011
0100
1001
0100
,
0011
0100
1001
0100
0011
0100
1001
0100
,
0011
0100
1110
0001
1010
0100
1001
0100
,
1010
0100
1001
0100
1010
0100
1001
0100
,
1010
0100
1001
0100
1100
0001
0110
0001
,
1100
0001
0110
0001
1100
0001
0110
0001
,
1100
0001
0101
1000
0011
1000
0101
1000
,
0011
1000
0101
1000
0011
1000
0101
1000
,
0011
1000
1010
0100
0011
0100
1010
0100
,
0011
0100
1010
0100
0011
0100
1010
0100
,
0011
0100
0111
1000
0101
1000
0110
1000
,
0101
1000
0110
1000
0101
1000
0110
1000
,
0101
1000
0011
0100
1001
0100
0011
0100
,
1001
0100
0011
0100
1001
0100
0011
0100
,
1001
0100
1101
0010
1001
0010
0101
0010
,
1001
0010
1101
0001
1010
0001
1100
0001
,
1010
0001
1110
0001
1010
0001
1100
0001
,
1010
0001
1000
0000
1111
0000
1111
1111
,
0000
0000
0001
0010
1101
0010
0100
1000
0010
0100
1000
0100
0011
1000
0001
0100
,
0010
1000
0001
0100
0011
1000
0001
0100
0010
1000
0100
0010
0101
1000
0001
0100
,
0010
0100
1000
0001
1100
0010
0001
1000
0010
1000
0100
0010
1100
0010
0001
0100
,
0010
1000
0100
0010
0101
1000
0100
0010
0001
0100
0010
0001
1010
0100
1000
0010
,
0100
1000
0100
0010
1101
0010
0001
0010
0100
0010
0001
1000
0101
0010
0001
0100
,
1000
0100
0010
0100
1010
0001
1000
0010
1000
0001
0100
0001
1010
0001
1000
0100
,
1000
0010
0100
1000
0101
0010
0001
1000
0100
0001
0010
1000
0011
0100
0010
1000
,
0010
0100
0001
1000
0101
0010
0100
0010
1100
0001
0010
1000
0101
0010
0101
1000
,
0010
1000
0100
0010
1101
0010
1000
0001
0100
0010
1000
0001
1100
0010
0100
1000
,
0100
0010
0001
1000
0011
0100
0010
0100
0001
0010
0001
0100
1001
0010
0001
0100
,
0010
1000
0010
1000
0011
0100
0001
0010
0100
0010
0100
0001
1100
0010
0100
0001
,
0010
0100
0010
0001
1100
0010
0100
1000
0100
0010
0001
1000
0110
1000
0001
0100
,
0010
1000
0100
1000
0111
1000
0100
0001
0100
1000
0100
0001
1010
0100
0010
1000
,
0100
1000
0010
0100
1010
0001
0010
0100
0001
1000
0001
0100
1010
0001
1000
0100
,
0001
1000
0010
0100
1011
0100
0001
0010
0100
0001
1000
0010
0101
1000
0100
0010
,
0001
0100
0010
0100
1001
0010
0001
0010
0100
1000
0010
0100
0011
1000
0010
0001
,
0100
1000
0001
0010
2001
0100
0010
0001
0010
0001
0100
0001
0100
0010
0100
0001
,
0010
0100
0010
3100
0012
1000
0100
0010
1000
0100
0010
1000
0100
1000
0010
1000
,
0100
0010
1000
0010
1103
0010
0001
1000
0010
0100
1000
0010
0100
1000
0100
0010
,
0001
1000
0100
0000
1010
0100
1000
0100
0010
0001
0100
1000
0100
0010
0001
0010
,
1000
0010
0001
0000
0110
1000
0001
0100
0001
1000
0100
1000
0100
0010
0001
0100
,
1000
0001
0010
0100
1000
0100
0010
0100
1000
0100
0010
0001
0010
0100
0010
0001
,
0010
0001
0100
0000
1011
0100
0010
0001
1000
0010
0100
0001
1000
0001
0100
0010
,
1000
0100
0010
0000
1100
0001
1000
0010
0100
1000
0100
0010
0001
0100
0010
0100
,
1000
0100
0010
0000
1001
0000
1010
0000
1001
0000
1010
0000
1001
0000
1010
0000
,
1001
0000
1010
0000
1001
0100
0010
0001
0010
0100
0010
0100
1000
0100
0010
0001
,
0010
0100
1000
0100
1011
0100
1000
0010
0001
0100
0010
1000
0001
0100
0010
0001
,
0010
0100
0010
0000
0101
1000
0100
0010
0001
0010
0001
0010
0100
1000
0100
0010
,
0100
0010
0001
1000
0011
0100
1010
0100
0011
0100
1010
0001
1100
0010
0001
0010
,
0100
0001
0010
0100
1001
0100
0010
0100
1000
0010
0100
1000
0100
0010
0001
0010
,
0001
0010
0100
0000
1110
0001
1000
0010
0100
0001
0010
0100
0010
1000
0010
0100
,
1000
0100
0010
0000
0110
1000
0001
0100
0001
1000
0010
0100
1000
0100
1000
0010
,
0100
0010
0001
0000
0101
0000
0110
0000
0101
0000
0110
0000
0101
0000
0110
0000
,
0101
0110
0101
1000
0110
1000
0110
1000
,
0110
0000
1000
0000
0101
1000
0001
0100
0010
0001
1000
0010
1100
0001
1000
0100
,
0010
0100
1000
0010
1001
0010
0100
1000
0001
1000
0010
0100
0011
0100
1000
0010
,
1000
0100
0010
0001
1100
0001
1000
0010
0100
0001
0010
1000
0101
0010
1000
0010
,
0001
0100
1000
0010
0101
1000
0100
0010
0001
0100
0010
1000
0110
0001
0010
1000
,
0001
0100
0001
1000
0011
1000
0100
1000
0010
0100
1000
0010
1001
0100
1000
0100
,
0001
1000
0010
1000
0011
0100
0010
1000
0010
0100
0001
0010
0101
1000
0010
0100
,
1000
0100
0010
0001
1010
0100
0010
0001
0010
1000
0100
0010
1001
0010
1000
0010
,
0100
0001
1000
0100
1001
0010
0001
0100
1000
0010
0001
0100
1001
0010
0001
0100
,
1000
0010
0001
0100
1011
0100
0001
1000
0010
0100
0001
1000
0110
1000
0001
0100
,
0001
1000
0001
0100
1010
0100
0010
0001
0010
0100
0010
0001
1100
0010
0100
1000
,
0001
0100
0010
1000
0101
0010
0001
1000
0100
0010
0001
0100
0011
0100
1000
0010
,
1000
0001
0100
0010
1001
0100
0010
0001
1000
0010
0100
1000
0101
0010
0100
0010
,
0001
0010
1000
0001
0110
1000
0001
0010
0100
0010
1000
0001
1010
0100
0001
1000
,
0010
0100
0010
1000
0101
0010
0001
0100
1000
0010
0100
0001
1010
0100
0010
0001
,
1000
0100
0010
0100
1001
0010
0100
1000
0010
0100
0010
0001
1100
0001
0010
0001
,
1000
0001
1000
0100
1010
0001
1000
0001
0010
0001
1000
0001
1010
0100
1000
0001
,
1000
0001
0010
0001
1010
0100
0010
0001
1000
0010
1000
0100
1010
0001
0010
0100
,
0010
1000
0100
0001
1100
0010
0001
1000
0010
1000
0001
0100
0011
1000
0100
0010
,
0001
0100
0001
0010
1100
0010
0001
0100
0010
0100
1000
0001
1010
0100
0010
1000
,
0100
0001
1000
0010
0101
1000
0010
1000
0100
0001
0100
1000
0011
0100
0001
0010
,
1000
0001
0010
0001
1110
0001
0010
1000
0100
0010
0001
0010
0101
1000
0010
0100
,
1000
0001
0010
0100
1011
0100
0010
0001
1000
0010
1000
0100
0011
1000
0001
0100
,
0010
0001
0100
0010
1101
0010
0001
0100
0010
1000
0100
1000
0011
0100
0010
0001
,
0100
0010
0100
0001
1010
0100
0010
0001
1111
0000
0000
0000
1111
0000
1111
0000
,
0000
0000
0001
0010
1101
0010
0100
1000
0011
0100
1000
0100
0011
1000
0001
0100
,
1010
0100
0001
0100
1010
0100
0001
0100
0011
1000
0100
0010
0101
1000
0001
0100
,
1010
0100
1000
0001
1100
0010
0001
1000
0011
1000
0100
0010
0101
0010
0001
0100
,
0011
1000
0100
0010
1100
0010
0100
0010
1001
0100
0010
0001
1010
0100
1000
0010
,
0101
1000
0100
0010
1101
0010
0001
0010
1100
0010
0001
1000
0101
0010
0001
0100
,
1001
0100
0010
0100
1001
0100
1000
0010
1100
0001
0100
0001
1100
0010
1000
0100
,
1010
0001
0100
1000
0101
0010
0001
1000
0110
0001
0010
1000
0011
0100
0010
1000
,
0011
0100
0001
1000
0101
0010
0100
0010
1100
0001
0010
1000
0101
0010
0101
1000
,
0110
1000
0100
0010
1101
0010
1000
0001
1100
0010
1000
0001
1100
0010
0100
1000
,
0101
0010
0001
1000
0011
0100
0010
0100
1001
0010
0001
0100
1010
0001
0010
0100
,
0011
1000
0010
1000
0011
0100
0001
0010
1100
0010
0100
0001
1100
0010
0100
0001
,
1010
0100
0010
0001
1100
0010
0100
1000
0101
0010
0001
1000
0110
1000
0001
0100
,
0011
1000
0100
1000
0111
1000
0100
0001
0110
1000
0100
0001
1010
0100
0010
1000
,
0101
1000
0010
0100
1001
0100
0010
0100
1001
0100
0001
0100
1010
0001
1000
0100
,
0011
1000
0010
0100
0011
0100
0001
0010
1100
0001
1000
0010
0101
1000
0100
0010
,
1001
0100
0010
0100
1001
0010
0001
0010
0101
1000
0010
0100
0011
1000
0010
0001
,
0110
1000
0001
0010
2100
0000
0010
0000
0001
0000
0010
0000
0001
0000
0010
0000
,
0001
0010
3002
0100
0010
0100
0010
0100
,
0010
0100
0013
1000
0101
0010
0001
0100
,
1010
0100
0001
1000
0110
0001
0010
0100
,
0011
1000
0010
0100
1010
0100
0010
0001
,
1100
0001
1000
0010
0101
1000
0100
0001
,
0110
1000
0100
0010
1001
0010
0100
0001
,
1010
0100
1000
0010
1100
0010
0001
0100
,
0011
1000
0100
0010
0101
1000
0100
0010
,
1100
0000
1000
0000
0211
0000
0000
0000
0000
0000
0000
0000
0010
0001
1000
0001
,
0010
1000
0010
0001
1310
0001
1000
0010
1100
0001
1000
0100
1010
0001
0010
0100
,
1010
0001
1000
0010
1001
0100
1000
0001
1010
0100
0010
1000
0101
0010
0100
1000
,
0011
1000
0010
0100
0011
1000
0100
0010
1100
0001
1000
0010
0101
1000
0100
0010
,
1001
0100
1000
0100
1010
0100
0010
0001
1010
0100
0010
0100
0011
1000
0010
0100
,
1010
0001
0010
0100
1011
0100
1000
0001
0110
0001
1000
0010
1001
0010
0100
1000
,
0110
0001
0010
0001
1110
0001
0100
0010
1100
0001
0010
0100
0011
1000
0010
1000
,
0101
1000
0100
0010
1101
0010
0100
0010
1001
0010
0100
0001
1110
0001
1000
0010
,
1001
0100
0001
0100
1011
0100
1001
0100
1011
0100
0011
0100
1011
0100
1010
0100
,
1011
0100
1001
0100
2012
0000
0000
0000
0100
0000
0000
0000
0010
0000
0010
0000
,
0000
3003
1111
0000
1221
0000
0000
0000
0001
0000
0000
0000
1000
0000
1000
0000
,
0000
0000
1001
0000
1331
0010
0101
1000
0011
0100
1001
0100
1010
0100
1001
0100
,
0011
1000
0110
0001
0110
1000
0011
0100
1010
0001
1100
0010
0101
1000
0011
0100
,
1001
0100
1010
0001
1100
0010
0101
1000
0110
1000
0101
0010
0101
0010
1001
0100
,
0011
1000
0110
0001
0110
1000
0101
0010
1001
0100
1010
0001
1010
0100
1001
0010
,
0101
1000
0101
0010
1101
0010
1001
0010
0101
0010
1001
0100
1001
0010
1001
0100
,
1010
0100
0011
0100
1001
0100
1010
0001
1100
0001
0110
0001
1010
0001
0110
1000
,
0101
0010
1100
0010
0101
0010
1001
0010
1100
0001
0110
1000
0011
0100
1010
0001
,
1100
0010
0101
1000
0101
0010
1100
0010
1001
0100
0011
1000
0101
0010
0101
1000
,
0011
1000
0101
0010
1101
0010
1100
0001
1010
0100
1001
0010
1100
0010
0101
0010
,
1001
0010
0101
1000
0011
0100
1010
0100
1001
0010
1100
0001
1010
0100
1001
0100
,
0011
1000
0110
1000
0101
0010
1001
0010
1100
0010
0101
0010
1001
0010
1100
0001
,
1010
0100
1010
0001
1100
0010
0101
1000
0101
0010
1001
0100
1010
0100
0011
0100
,
1001
0010
0101
1000
0111
1000
0110
0001
0110
1000
0110
0001
1010
0100
0011
1000
,
0101
1000
0011
0100
1010
0001
1010
0100
0011
1000
0011
0100
1010
0001
1010
0100
,
0011
0100
1010
0100
1010
0100
1001
0010
1001
0100
1001
0010
0101
0010
1100
0010
,
1001
0100
0011
0100
1010
0100
1001
0010
1100
0001
1010
0100
1001
0100
1010
0001
,
0110
1000
0101
0010
2001
0100
0010
0001
0010
0001
0100
0001
0100
0010
0100
0001
,
0010
0100
0010
3100
0002
0010
0100
0010
1000
0100
0010
1000
0100
1000
0010
1000
,
0100
0010
1000
0010
1113
0001
1010
0100
1001
0010
0101
1000
0110
0001
1010
0001
,
1100
0010
1001
0100
1011
0100
1010
0100
1001
0010
1100
0001
0110
1000
0101
0010
,
1001
0100
0011
1000
0111
1000
0011
0100
1001
0010
1100
0001
0110
1000
0101
0010
,
1001
0010
1100
0001
1110
0001
1010
0100
1001
0100
0011
1000
0110
0001
1010
0100
,
1001
0010
0101
1000
0111
1000
0101
0010
1100
0001
0110
1000
0101
0010
1001
0100
,
0011
1000
0101
0010
1101
0010
1001
0010
1100
0001
0110
1000
0101
0010
1001
0100
,
0011
1000
0101
0010
1101
0010
0101
1000
0110
1000
0101
0010
1001
0010
1100
0001
,
0110
1000
0101
0010
1101
0010
0101
1000
0110
0001
1010
0100
1001
0010
1100
0001
,
1010
0100
1001
0010
1101
0010
0101
1000
0011
1000
0110
0001
1010
0100
1001
0010
,
1100
0010
0101
0010
1101
0010
1001
0100
0011
1000
0110
1000
0101
0010
1001
0010
,
1100
0001
0110
1000
0111
1000
0101
0010
1100
0001
0110
1000
0101
0010
1001
0100
,
0011
1000
0101
0010
1101
0010
1001
0010
1100
0001
0110
1000
0101
0010
1001
0010
,
1100
0001
1010
0100
1011
0100
0011
1000
0101
0010
1001
0010
1100
0001
0110
1000
,
0101
0010
1001
0100
1011
0100
1001
0010
1100
0010
0101
1000
0011
0100
1001
0010
,
1100
0001
1010
0001
1110
0001
1100
0001
0110
1000
0011
1000
0101
0010
1001
0100
,
0011
1000
0110
0001
1010
0100
1000
0100
0010
0001
0010
0100
1000
0100
0010
0001
,
0010
0100
1000
0000
0000
0000
0000
0000
0000
0000
0000
0000
0000
0000
0000
0000
;
